DownloadInternet Downloader Manager 6.29.12 + Crack

[TV Show] Mr.Robot Season 2 S02 1080p WEB-DL 6CH HEVC x265-GIRAYS

If you like this post, share this to everyone !

91zX415Yx0L._SX342_ [TV Show] Mr.Robot Season 2 S02 1080p WEB-DL 6CH HEVC x265-GIRAYS

Complete name : Mr.Robot.S02E01.eps2.0_unm4sk-pt1.tc.1080p.WEB-DL.H.265-GIRAYS.mkv
Format : Matroska | Format version : Version 4 / Version 2 | File size : 315 MiB
Duration : 41mn 4s | Overall bit rate : 1 071 Kbps
Encoded date : UTC 2016-09-15 15:50:20
Writing application : mkvmerge v9.2.0 (‘Photograph’) 64bit
Writing library : libebml v1.3.3 + libmatroska v1.4.4

English subtitles are included.

Use latest MPC-HC, VLC, KMPlayer, Gom Player, or any other modern player to play X265 .
Please note that x265 requires more resources for adequate playback. If your audio is out of sync, then your machine can’t handle it .
So be sure to have a strong PC or device to play it.
If you only have audio and no video, then please update your player.

General
Complete name : Mr.Robot.S02E01.eps2.0_unm4sk-pt1.tc.1080p.WEB-DL.H.265-GIRAYS.mkv
Format : Matroska
Format version : Version 4 / Version 2
File size : 315 MiB
Duration : 41mn 4s
Overall bit rate : 1 071 Kbps
Encoded date : UTC 2016-09-15 15:50:20
Writing application : mkvmerge v9.2.0 (‘Photograph’) 64bit
Writing library : libebml v1.3.3 + libmatroska v1.4.4

Video
ID : 1
Format : HEVC
Format/Info : High Efficiency Video Coding
Format profile : Main@L4@Main
Codec ID : V_MPEGH/ISO/HEVC
Duration : 41mn 4s
Bit rate : 864 Kbps
Width : 1 920 pixels
Height : 1 080 pixels
Display aspect ratio : 16:9
Frame rate mode : Constant
Frame rate : 23.976 (24000/1001) fps
Color space : YUV
Chroma subsampling : 4:2:0
Bit depth : 8 bits
Bits/(Pixel*Frame) : 0.017
Stream size : 254 MiB (81%)
Writing library : x265 1.9+200-6098ba3e0cf16b11:[Windows][GCC 5.3.0][64 bit] 8bit+10bit+12bit
Default : Yes
Forced : No

Audio
ID : 2
Format : AAC
Format/Info : Advanced Audio Codec
Format profile : HE-AAC / LC
Codec ID : A_AAC
Duration : 41mn 4s
Bit rate : 205 Kbps
Channel(s) : 6 channels
Channel positions : Front: L C R, Side: L R, LFE
Sampling rate : 48.0 KHz / 24.0 KHz
Frame rate : 23.438 fps (1024 spf)
Compression mode : Lossy
Delay relative to video : 40ms
Stream size : 60.1 MiB (19%)
Language : English
Default : No
Forced : No

Text
ID : 3
Format : UTF-8
Codec ID : S_TEXT/UTF8
Codec ID/Info : UTF-8 Plain Text
Duration : 40mn 21s
Bit rate : 75 bps
Count of elements : 704
Stream size : 22.4 KiB (0%)
Language : English
Default : No
Forced : No

SCREENSHORT

91zX415Yx0L._SX342_ [TV Show] Mr.Robot Season 2 S02 1080p WEB-DL 6CH HEVC x265-GIRAYS

91zX415Yx0L._SX342_ [TV Show] Mr.Robot Season 2 S02 1080p WEB-DL 6CH HEVC x265-GIRAYS

91zX415Yx0L._SX342_ [TV Show] Mr.Robot Season 2 S02 1080p WEB-DL 6CH HEVC x265-GIRAYS

LINK DOWNLOAD

Buy Premium Account To Get Resumable Support & Max Speed

rapidgator_net

SINGLE LINK: http://safelinking.net/pYG3y8D

700MB LINKS: http://safelinking.net/QMA4618

nitroflare_com

SINGLE LINK: http://safelinking.net/NmM5RrU

700MB LINKS: http://safelinking.net/aZtuaXF

password: 24hdown.com

If you like this post, share this to everyone !

Add a Comment

Your email address will not be published. Required fields are marked *

Please wait...

Subscribe to our newsletter

Want to be notified when our article is published? Enter your email address and name below to be the first to know.