Rapidgator.net
DownloadInternet Downloader Manager 6.29.12 + Crack

[MUSIC] Pantera – Far Beyond Driven (US) -FLAC-1.2GB

If you like this post, share this to everyone !

front-1 [MUSIC] Pantera - Far Beyond Driven (US) -FLAC-1.2GB

Number of tracks: 12 | Official DR value: DR12 | Samplerate: 96000 Hz 
Channels: 2 | Bits per sample: 24 | Bitrate: 2533 kbps | Codec: FLAC| 1,2GiB
Analyzed: Pantera / Far Beyond Driven

DR Peak RMS Duration Track
——————————————————————————–
DR11 -1.19 dB -14.00 dB 3:39 01-Strength Beyond Strength
DR12 -2.05 dB -14.81 dB 3:05 02-Becoming
DR12 -2.39 dB -15.56 dB 5:47 03-5 Minutes Alone
DR12 -1.29 dB -15.76 dB 4:25 04-I’m Broken
DR11 -2.32 dB -18.17 dB 2:53 05-Good Friends And A Bottle Of Pills
DR12 -2.78 dB -17.85 dB 7:03 06-Hard Lines, Sunken Cheeks
DR12 -1.85 dB -15.68 dB 3:58 07-Slaughtered
DR13 -0.77 dB -16.57 dB 6:06 08-25 Years
DR12 -2.71 dB -16.84 dB 5:37 09-Shedding Skin
DR12 -2.31 dB -16.31 dB 4:52 10-Use My Third Arm
DR12 -3.90 dB -18.02 dB 5:02 11-Throes Of Rejection
DR12 -4.71 dB -20.85 dB 4:03 12-Planet Caravan
——————————————————————————–

front-1 [MUSIC] Pantera - Far Beyond Driven (US) -FLAC-1.2GB

LINK DOWNLOAD

Buy Premium Account To Get Resumable Support & Max Speed

Rapidgator_nethttp://safelinking.net/ynZqR89

Nitroflare_comhttp://safelinking.net/g97BgIf

password: 24hdown.com

 

Rate this post
If you like this post, share this to everyone !
Tags:, , , , , , , , , , , , , , , , , , , , , , , , , , , , , , , , , , , , , , ,

Add a Comment

Your email address will not be published. Required fields are marked *