DownloadInternet Downloader Manager 6.29.12 + Crack

BBC Arena – American Epic (2017)

If you like this post, share this to everyone !
00465048 BBC Arena - American Epic (2017)
BBC Arena – American Epic (2017)
HDTV | 1280×720 | .MKV/AVC @ 2124 Kbps | 4x~58min | 4.63 GiB
Audio: English AAC 128 kbps, 2 channels | Subs: None
Genre: Documentary

A film series exploring the pivotal recording journeys at the height of the Roaring Twenties, when music scouts, armed with cutting-edge recording technology, captured the breadth of American music and discovered the artists that would shape our world. Robert Redford narrates this meticulously researched story of a cultural revolution that changed the world. “This isn’t just another film, this is history” – Elton John.
Part 1: The Big Bang
The first episode takes us back to 1920s America, where the growth of radio had shattered record sales. Record companies travelled rural America and recorded the music of ordinary people for the first time. The poor and oppressed were given a voice as their recordings spread from state to state. The film introduces the early recordings of The Carter Family, the founders of modern country music, steeped in the traditions of their isolated Appalachian community. It also features Will Shade and the Memphis Jug Band, whose music told the story of street life in Memphis, and laid the foundations for modern day rap and R’n’B.

Part 2: Blood and Soil
This episode takes a look at the stories of those early music pioneers whose names have largely been forgotten. In the small South Carolina town of Cheraw, Elder Burch held lively church gatherings which inspired young musicians – including jazz giant Dizzy Gillespie. Gillespie’s autobiography cites Burch and his sons as direct inspirations; it is no exaggeration to say that modern music would not look the same without Burch’s early influence. The programme takes a look at the gritty songs and musicians that came from the coal mines of Logan County, West Virginia – The Williamson Brothers, Dick Justice and Frank Hutchinson. The hellish conditions of the coal mines inspired them to find a way out, through their music. Finally we head to the home of the blues – the Mississippi Delta, where Charley Patton captured the sounds and struggles of life in the cotton fields. Patton’s significance cannot be understated; he is widely considered the most influential musician in the birth of blues, teaching some of the best blues artists that followed including Howlin’ Wolf, Robert Johnson and Honeyboy Edwards.

Part 3: Out of the Many, the One
The third episode takes a look at the influence of Hawaiian music and more specifically, the steel guitar, which became a central sound to a range of musical styles. When Joseph Kekuku picked up a metal bolt as he wandered down a train track, the bolt hit the strings of his guitar and the sound was born. He perfected his slide to create a new instrument that would travel the world. The programme continues with an exploration of Cajun music, the blended music of Louisiana that reflects the winding landscape of the bayous. This appealed to the record companies as something set apart from the established genres of country, jazz and blues. Central to the scene were the Breaux family, who talk about continuing their musical heritage today. Finally we hear the story of Mississippi John Hurt – discovered in the 1920s but soon forgotten, he represents the odyssey of American Epic in microcosm. After travelling to Memphis where his music was recorded, he returned home to Avalon, a tiny spot on the map of Mississippi. With the Depression, recording in the south came virtually to a halt and Hurt simply went back to sharecropping, his music forgotten by all but a few dedicated collectors. 35 years after those first recordings, folklorist Dick Spottswood tracked down Hurt in 1963, sparking a revival of his music. He starred at the Newport Folk Festival and became celebrated all over the world.

Part 4: The Sessions
The machine that introduced the sounds of America to its people has been lovingly reassembled and now, in the heart of Hollywood, in a perfect recreation of the atmosphere and conditions of America’s first ever recording studios, today’s music superstars roll the epic on. Elton John, Willie Nelson, Merle Haggard, Alabama Shakes, Jack White, Nas, Ana Gabriel, Beck, Los Lobos and Steve Martin are among the artists who test their skills against the demands of the recording machine that literally made American music. There are no edits, no overdubs and no retakes, and the disc only allows for three minutes of recording time. Despite these limitations, today’s recordings for American Epic have one advantage – the freshly recorded sound is crystal clear and of an astonishing depth, transporting us vividly into the past – and the future.

MediaInfo

General
Unique ID : 226053035255633568457246319443356211240 (0xAA103B2050C222D6BEDA106D4008D828)
Complete name : BBC.Arena.2017.American.Epic.1of4.The.Big.Bang.720p.mkv
Format : Matroska
Format version : Version 4 / Version 2
File size : 943 MiB
Duration : 58 min 26 s
Overall bit rate : 2 255 kb/s

Video
ID : 1
Format : AVC
Format/Info : Advanced Video Codec
Format profile : High@L3.1
Format settings, CABAC : Yes
Format settings, ReFrames : 4 frames
Codec ID : V_MPEG4/ISO/AVC
Duration : 58 min 26 s
Bit rate : 2 124 kb/s
Width : 1 280 pixels
Height : 720 pixels
Display aspect ratio : 16:9
Frame rate mode : Constant
Frame rate : 25.000 FPS
Color space : YUV
Chroma subsampling : 4:2:0
Bit depth : 8 bits
Scan type : Progressive
Bits/(Pixel*Frame) : 0.092
Stream size : 888 MiB (94%)
Encoding settings : cabac=1 / ref=4 / deblock=1:0:0 / analyse=0x3:0x113 / me=umh / subme=9 / psy=1 / psy_rd=1.00:0.00 / mixed_ref=1 / me_range=24 / chroma_me=1 / trellis=1 / 8x8dct=1 / cqm=0 / deadzone=21,11 / fast_pskip=0 / chroma_qp_offset=-2 / threads=3 / lookahead_threads=1 / sliced_threads=0 / nr=0 / decimate=1 / interlaced=0 / bluray_compat=0 / constrained_intra=0 / bframes=5 / b_pyramid=2 / b_adapt=2 / b_bias=0 / direct=1 / weightb=1 / open_gop=0 / weightp=2 / keyint=250 / keyint_min=25 / scenecut=40 / intra_refresh=0 / rc_lookahead=40 / rc=crf / mbtree=1 / crf=20.0 / qcomp=0.60 / qpmin=0 / qpmax=69 / qpstep=4 / ip_ratio=1.40 / aq=1:1.00
Language : English
Default : Yes
Forced : No

Audio
ID : 2
Format : AAC
Format/Info : Advanced Audio Codec
Format profile : LC
Codec ID : A_AAC
Duration : 58 min 26 s
Bit rate : 128 kb/s
Channel(s) : 2 channels
Channel positions : Front: L R
Sampling rate : 48.0 kHz
Frame rate : 46.875 FPS (1024 spf)
Compression mode : Lossy
Delay relative to video : 9 ms
Stream size : 53.5 MiB (6%)
Language : English
Default : Yes
Forced : No

Text
ID : 3
Format : UTF-8
Codec ID : S_TEXT/UTF8
Codec ID/Info : UTF-8 Plain Text
Duration : 55 min 40 s
Bit rate : 94 b/s
Count of elements : 917
Stream size : 38.4 KiB (0%)
Language : English
Default : No
Forced : No

Screenshort

00465048 BBC Arena - American Epic (2017)

00465048 BBC Arena - American Epic (2017)

00465048 BBC Arena - American Epic (2017)

00465048 BBC Arena - American Epic (2017)

DOWNLOAD LINKS

rapidgator.net

http://safelinking.net/j1ylJdF

nitroflare.com

http://safelinking.net/1cnmFYi

If you like this post, share this to everyone !

Add a Comment

Your email address will not be published. Required fields are marked *

Please wait...

Subscribe to our newsletter

Want to be notified when our article is published? Enter your email address and name below to be the first to know.